Распродажа!

[Юрий Дворжецкий] OTUS Разработчик на Spring Framework (2018)

99,00 

Описание

Курс будет полезен всем. От Junior Java-программистов, не имеющих опыта работы со Spring, с минимальным опытом с IoC-контейнером Spring или испытывающих трудности с ним до архитекторов и тех.лидов, желающих узнать про современные возможности Spring для решения высокоуровневых задач.

Продолжительность: 50:27:38

Качество видео: PCRec

Видео: AVC/H.264, 640×360-1280×720, ~69-710 Kbps

Аудио: AAC, 2 ch, 93-128 Kbps

Спойлер: Программа курса:

Модуль 1 Введение

В данном модуле будут рассматриваться понятия и функциональности, на которых базируются все проекты Spring: Inversion of Control (Spring Context), аспектное программирование (Spring AOP), Spring Expression Language (SpEL).

Слушатели смогут правильно и эффективно конфигурировать Spring-приложения различными средствами и способами, а также будет рассмотрена “чёрная магия” Spring Boot – автоконфигурации.

Модуль 2 Работа с базами данных

В данном разделе будет рассмотрены проекты Spring для работы как с реляционными базами данных, так и с NoSQL базами данных.

Spring JDBC, Spring ORM, Spring Data Repositories и, разумеется, работа с транзакциями.

Помимо проектов Spring, участники смогут разбираться в особенностях различных баз данных, а также использовать специальные embedded-базы даных.

Модуль 3 Разработка Web-приложений

В данном модуле будут рассматриваться возможности Spring для разработки Web-приложений: Spring MVC и современный Reactive-ориентированный Spring WebFlux.

Разумеется, будут рассмотрены популярные технологии View и разработка современных SPA-приложений.

И, конечно, различные “плюшки” Spring Boot, максимально ускоряющие разработку Web-приложений.

Модуль 4 “Около” и “Дзен”

В данном модуле рассматриваются продвинутые проекты Spring решающие специфичные задачи, связанные с авторизацией и аутентификацией, размещения сервисов в облаках и работой с БД, а также облегчающие создание больших монолитов и систем на микросервисной архитектуре.

Модуль 5 Проектная работа

Заключительный месяц курса посвящен проектной работе. Свой проект – это то, что интересно писать студенту. То, что можно создать на основе знаний, полученных на курсе.

При этом не обязательно закончить его за месяц. В процессе написания по проекту можно получить консультации преподавателей.

Проект должен стать примером кода, который можно показывать потенциальным работодателям.

Проект должен быть сделан на основе Spring Boot, включать работу с DB с ипользованием Spring Data репозиториев и/или Spring JDBC.

Проект должен иметь UI построенный на современных принципах разработки Web-приложений (AJAX и/или SPA).

Приложение должно содержать механизмы аутентификации и авторизации с использованием Spring Security

Асинхронные части могут быть реализованы с помощью Spring Integration.

Пектные обработки, утилиты поддержки должны быть реализованы с помощью Spring Batch + Spring Shell.

Проект должен быть cloud-ready.

Примеры тем:

– Онлайн-библиотека

– Блог с админкой/регистрацией пользователей

Предлагаемые темы выпускного проекта:

– Онлайн-библиотека

– Блог с админкой/регистрацией пользователей

– Всё что угодно, к чему “душа лежит”

Спойлер: Mediainfo:

Общее

Полное имя : .4. Около и Дзен32. Обзор дополнительных технологий Spring, выбор архитектуры и технологий32 – Обзор дополнительных технологий Spring (часть 2).mp4

Формат : MPEG-4

Профиль формата : Base Media / Version 2

Идентификатор кодека : mp42 (isom/mp42)

Размер файла : 118 Мбайт

Продолжительность : 58 м. 52 с.

Режим общего битрейта : Переменный

Общий поток : 281 Кбит/сек

Дата кодирования : UTC 2018-10-31 20:39:46

Дата пометки : UTC 2018-10-31 20:39:46

Видео

Идентификатор : 1

Формат : AVC

Формат/Информация : Advanced Video Codec

Профиль формата : Baseline@L3

Настройки формата : 1 Ref Frames

Параметр CABAC формата : Нет

Параметр RefFrames формата : 1 кадр

Параметр GOP формата : M=1, N=60

Идентификатор кодека : avc1

Идентификатор кодека/Информация : Advanced Video Coding

Продолжительность : 58 м. 52 с.

Битрейт : 182 Кбит/сек

Ширина : 640 пикселей

Высота : 360 пикселей

Соотношение сторон : 16:9

Режим частоты кадров : Постоянный

Частота кадров : 30,000 кадров/сек

Цветовое пространство : YUV

Субдискретизация насыщенности : 4:2:0

Битовая глубина : 8 бит

Тип развёртки : Прогрессивная

Бит/(Пиксели*Кадры) : 0.026

Размер потока : 76,8 Мбайт (65%)

Заголовок : ISO Media file produced by Google Inc. Created on: 10/31/2018.

Дата кодирования : UTC 2018-10-31 20:39:46

Дата пометки : UTC 2018-10-31 20:39:46

Цветовой диапазон : Limited

Основные цвета : BT.709

Характеристики трансфера : BT.709

Коэффициенты матрицы : BT.709

Codec configuration box : avcC

Аудио

Идентификатор : 2

Формат : AAC LC

Формат/Информация : Advanced Audio Codec Low Complexity

Идентификатор кодека : mp4a-40-2

Продолжительность : 58 м. 52 с.

Вид битрейта : Переменный

Битрейт : 96,0 Кбит/сек

Каналы : 2 канала

Channel layout : L R

Частота : 44,1 КГц

Частота кадров : 43,066 кадра/сек (1024 SPF)

Метод сжатия : С потерями

Размер потока : 40,4 Мбайт (34%)

Заголовок : ISO Media file produced by Google Inc. Created on: 10/31/2018.

Дата кодирования : UTC 2018-10-31 20:39:46

Дата пометки : UTC 2018-10-31 20:39:46

Общее

Полное имя : .2. Работа с базами данных8. JPQL, Spring ORM, DAO на основе Spring ORM + JPA8 – JPQL, Spring ORM, DAO на основе Spring ORM + JPA.mp4

Формат : MPEG-4

Профиль формата : Base Media / Version 2

Идентификатор кодека : mp42 (isom/mp42)

Размер файла : 580 Мбайт

Продолжительность : 1 ч. 56 м.

Режим общего битрейта : Переменный

Общий поток : 697 Кбит/сек

Дата кодирования : UTC 2018-07-20 21:13:23

Дата пометки : UTC 2018-07-20 21:13:23

gsst : 0

gstd : 6986025

Видео

Идентификатор : 1

Формат : AVC

Формат/Информация : Advanced Video Codec

Профиль формата : High@L3.1

Настройки формата : CABAC / 1 Ref Frames

Параметр CABAC формата : Да

Параметр RefFrames формата : 1 кадр

Идентификатор кодека : avc1

Идентификатор кодека/Информация : Advanced Video Coding

Продолжительность : 1 ч. 56 м.

Битрейт : 598 Кбит/сек

Максимальный битрейт : 3036 Кбит/сек

Ширина : 1260 пикселей

Высота : 720 пикселей

Соотношение сторон : 16:9

Режим частоты кадров : Постоянный

Частота кадров : 25,000 кадров/сек

Цветовое пространство : YUV

Субдискретизация насыщенности : 4:2:0

Битовая глубина : 8 бит

Тип развёртки : Прогрессивная

Бит/(Пиксели*Кадры) : 0.026

Размер потока : 498 Мбайт (86%)

Дата пометки : UTC 2018-07-20 21:13:52

Цветовой диапазон : Limited

Основные цвета : BT.709

Характеристики трансфера : BT.709

Коэффициенты матрицы : BT.709

Codec configuration box : avcC

Аудио

Идентификатор : 2

Формат : AAC LC

Формат/Информация : Advanced Audio Codec Low Complexity

Идентификатор кодека : mp4a-40-2

Продолжительность : 1 ч. 56 м.

Вид битрейта : Переменный

Битрейт : 96,0 Кбит/сек

Максимальный битрейт : 101 Кбит/сек

Каналы : 1 канал

Channel layout : C

Частота : 44,1 КГц

Частота кадров : 43,066 кадра/сек (1024 SPF)

Метод сжатия : С потерями

Размер потока : 79,9 Мбайт (14%)

Заголовок : IsoMedia File Produced by Google, 5-11-2011

Дата кодирования : UTC 2018-07-20 21:13:40

Дата пометки : UTC 2018-07-20 21:13:52

Общее

Полное имя : .4. Около и Дзен20. Spring Security_ Авторизация20. Spring Security – Авторизация (часть 3).mp4

Формат : MPEG-4

Профиль формата : Base Media / Version 2

Идентификатор кодека : mp42 (isom/mp42)

Размер файла : 26,9 Мбайт

Продолжительность : 20 м. 55 с.

Режим общего битрейта : Переменный

Общий поток : 180 Кбит/сек

Дата кодирования : UTC 2018-09-14 05:44:36

Дата пометки : UTC 2018-09-14 05:44:36

gsst : 0

gstd : 1255177

Видео

Идентификатор : 1

Формат : AVC

Формат/Информация : Advanced Video Codec

Профиль формата : Main@L3.1

Настройки формата : CABAC / 3 Ref Frames

Параметр CABAC формата : Да

Параметр RefFrames формата : 3 кадра

Идентификатор кодека : avc1

Идентификатор кодека/Информация : Advanced Video Coding

Продолжительность : 20 м. 55 с.

Битрейт : 82,7 Кбит/сек

Ширина : 1280 пикселей

Высота : 686 пикселей

Соотношение сторон : 1,85:1

Режим частоты кадров : Постоянный

Частота кадров : 25,000 кадров/сек

Цветовое пространство : YUV

Субдискретизация насыщенности : 4:2:0

Битовая глубина : 8 бит

Тип развёртки : Прогрессивная

Бит/(Пиксели*Кадры) : 0.004

Размер потока : 12,4 Мбайт (46%)

Заголовок : ISO Media file produced by Google Inc. Created on: 09/13/2018.

Дата кодирования : UTC 2018-09-14 05:44:36

Дата пометки : UTC 2018-09-14 05:44:36

Цветовой диапазон : Limited

Основные цвета : BT.709

Характеристики трансфера : BT.709

Коэффициенты матрицы : BT.709

Codec configuration box : avcC

Аудио

Идентификатор : 2

Формат : AAC LC

Формат/Информация : Advanced Audio Codec Low Complexity

Идентификатор кодека : mp4a-40-2

Продолжительность : 20 м. 55 с.

Вид битрейта : Переменный

Битрейт : 93,6 Кбит/сек

Каналы : 1 канал

Channel layout : C

Частота : 44,1 КГц

Частота кадров : 43,066 кадра/сек (1024 SPF)

Метод сжатия : С потерями

Размер потока : 14,0 Мбайт (52%)

Заголовок : ISO Media file produced by Google Inc. Created on: 09/13/2018.

Дата кодирования : UTC 2018-09-14 05:44:36

Дата пометки : UTC 2018-09-14 05:44:36

Общее

Полное имя : .4. Около и Дзен32. Обзор дополнительных технологий Spring, выбор архитектуры и технологий32 – Обзор дополнительных технологий Spring (часть 1).mp4

Формат : MPEG-4

Профиль формата : Base Media / Version 2

Идентификатор кодека : mp42 (isom/mp42)

Размер файла : 110 Мбайт

Продолжительность : 41 м. 12 с.

Режим общего битрейта : Переменный

Общий поток : 372 Кбит/сек

Дата кодирования : UTC 2018-10-31 20:30:50

Дата пометки : UTC 2018-10-31 20:30:50

gsst : 0

gstd : 2472623

Видео

Идентификатор : 1

Формат : AVC

Формат/Информация : Advanced Video Codec

Профиль формата : Main@L3.1

Настройки формата : CABAC / 3 Ref Frames

Параметр CABAC формата : Да

Параметр RefFrames формата : 3 кадра

Идентификатор кодека : avc1

Идентификатор кодека/Информация : Advanced Video Coding

Продолжительность : 41 м. 12 с.

Битрейт : 240 Кбит/сек

Ширина : 1280 пикселей

Высота : 720 пикселей

Соотношение сторон : 16:9

Режим частоты кадров : Постоянный

Частота кадров : 30,000 кадров/сек

Цветовое пространство : YUV

Субдискретизация насыщенности : 4:2:0

Битовая глубина : 8 бит

Тип развёртки : Прогрессивная

Бит/(Пиксели*Кадры) : 0.009

Размер потока : 70,7 Мбайт (65%)

Заголовок : ISO Media file produced by Google Inc. Created on: 10/31/2018.

Дата кодирования : UTC 2018-10-31 20:30:50

Дата пометки : UTC 2018-10-31 20:30:50

Цветовой диапазон : Limited

Основные цвета : BT.709

Характеристики трансфера : BT.709

Коэффициенты матрицы : BT.709

Codec configuration box : avcC

Аудио

Идентификатор : 2

Формат : AAC LC

Формат/Информация : Advanced Audio Codec Low Complexity

Идентификатор кодека : mp4a-40-2

Продолжительность : 41 м. 12 с.

Вид битрейта : Переменный

Битрейт : 128 Кбит/сек

Каналы : 2 канала

Channel layout : L R

Частота : 44,1 КГц

Частота кадров : 43,066 кадра/сек (1024 SPF)

Метод сжатия : С потерями

Размер потока : 37,7 Мбайт (34%)

Заголовок : ISO Media file produced by Google Inc. Created on: 10/31/2018.

Дата кодирования : UTC 2018-10-31 20:30:50

Дата пометки : UTC 2018-10-31 20:30:50

Есть проблема с 7 уроком. Видео дублирует 6. Его нет, проблема с заменой файла не решилась. По этому по презентации можете пробежаться, лектор все равно по презентации идёт и текстовой links почитайте…

Отзывы

Отзывов пока нет.

Будьте первым, кто оставил отзыв на “[Юрий Дворжецкий] OTUS Разработчик на Spring Framework (2018)”

Ваш адрес email не будет опубликован.Обязательные поля помечены *